Lipstick Under My Burkha 2017 Hindi 1CD DvDRip x264 AAC ESub- Hon...

  • Category Movies
  • Type Bollywood
  • Language Hindi
  • Total size 697.8 MB
  • Uploaded By Hon3yHD
  • Downloads 437
  • Last checked 1 day ago
  • Date uploaded 5 days ago
  • Seeders 9
  • Leechers 2

Lipstick Under My Burkha

ComedyDrama

Four ordinary women, inflicted by silly societal norms, have to steal, lie, cheat and hide in order to lead the lives that they rightfully deserve.

Infohash : 59F984CBDB042735642A42B3399CA854D5CB79B0

Lipstick Under My Burkha 2017 Hindi 1CD DvDRip x264 AAC ESub- Hon3y


http://Hon3yhd.to

Source: DVD9 @ Hon3yHD

Format : Matroska
Format version : Version 4 / Version 2
File size : 698 MiB
Duration : 1 h 58 min
Overall bit rate : 824 kb/s
Movie name : Lipstick Under My Burkha 2017-Hon3y


Video
ID : 1
Format : AVC
Format/Info : Advanced Video Codec
Format profile : [email protected]
Format settings, CABAC : Yes
Format settings, ReFrames : 8 frames
Codec ID : V_MPEG4/ISO/AVC
Duration : 1 h 58 min
Bit rate : 739 kb/s
Width : 720 pixels
Height : 304 pixels
Display aspect ratio : 2.35:1
Frame rate mode : Constant
Frame rate : 23.976 (24000/1001) FPS


Audio
ID : 3
Format : AAC
Format/Info : Advanced Audio Codec
Format profile : LC
Codec ID : A_AAC
Duration : 1 h 58 min
Bit rate : 84.0 kb/s
Channel(s) : 2 channels
Channel positions : Front: L R
Sampling rate : 48.0 kHz
Frame rate : 46.875 FPS (1024 spf)
Compression mode : Lossy
Delay relative to video : 9 ms
Stream size : 71.1 MiB (10%)
Language : Hindi
Default : Yes
Forced : No

Text
ID : 2
Format : UTF-8
Codec ID : S_TEXT/UTF8
Codec ID/Info : UTF-8 Plain Text
Duration : 1 h 49 min
Bit rate : 43 b/s
Count of elements : 1282
Stream size : 34.9 KiB (0%)
Language : English
Default : Yes
Forced : No

Menu
00:00:00.000 : en:Chapter 01
00:05:43.000 : en:Chapter 02
00:08:09.000 : en:Chapter 03
00:10:30.000 : en:Chapter 04
00:18:08.000 : en:Chapter 05
00:21:15.133 : en:Chapter 06
00:26:36.001 : en:Chapter 07
00:38:11.501 : en:Chapter 08
00:50:03.801 : en:Chapter 09
00:58:45.502 : en:Chapter 10
01:04:48.802 : en:Chapter 11
01:16:28.002 : en:Chapter 12
01:18:44.502 : en:Chapter 13
01:33:02.502 : en:Chapter 14
01:37:47.203 : en:Chapter 15
01:40:22.004 : en:Chapter 16
01:46:53.504 : en:Chapter 17
01:52:07.504 : en:Chapter 18

http://Hon3yhd.to




Files:

Lipstick Under My Burkha 2017 Hindi 1CD DvDRip x264 AAC ESub- Hon3y
  • www.hon3yhd.to.txt (0.1 KB)
  • www.hon3yhd.to.mkv (697.8 MB)

There are currently no comments. Feel free to leave one :)

Code:

  • udp://tracker.coppersurfer.tk:6969/announce
  • udp://tracker.zer0day.to:1337/announce
  • udp://shadowshq.yi.org:6969
  • udp://tracker.leechers-paradise.org:6969
  • udp://tracker.pirateparty.gr:6969/announce
  • udp://eddie4.nl:6969
  • udp://p4p.arenabg.com:1337/announce
  • udp://p4p.arenabg.ch:1337/announce
  • udp://tracker.leechers-paradise.org:6969/announce
  • udp://tracker.coppersurfer.tk:6969
  • udp://shadowshq.yi.org:6969/announce
  • udp://tracker.leechers-paradise.org:6969
  • udp://tracker.opentrackr.org:1337/announce
  • udp://explodie.org:6969/announce
  • udp://eddie4.nl:6969/announce